» » Chris de Burgh - High on Emotion: Live from Dublin

Chris de Burgh - High on Emotion: Live from Dublin album mp3

FLAC MP3 WMA
Chris de Burgh - High on Emotion: Live from Dublin album mp3
Adult Contemporary
  • Performer:
    Chris de Burgh
  • Title:
    High on Emotion: Live from Dublin
  • Genre:
  • Style:
    Adult Contemporary
  • Date of release:
    1995
  • Duration:
    01:13:49
  • Recording location:
    RDS Dublin, Ireland
  • Size FLAC version
    1184 megabytes
  • Size MP3 version
    1614 megabytes
  • Size WMA version
    1911 megabytes
  • Rating:
    4.9
  • Votes:
    892
  • Formats:
    DMF AIFF XM DTS RA AC3

Other Versions (5 of 28) View All. Cat.

Producer – Chris de Burgh. Producer, Management – Kenny Thomson (2). Saxophone, Guitar, Keyboards, Backing Vocals – Ian Kojima. Written-By, Lead Vocals, Guitar, Piano, Liner Notes – Chris de Burgh. Recorded at the RDS Dublin. Recorded on the Advison Mobile. Mixed at Marcus Studios, London.

Features Song Lyrics for Chris de Burgh's High on Emotion: Live From Dublin album. 4. High on Emotion Lyrics. 5. Sailing Away Lyrics. 6. Say Goodbye to It All Lyrics. 7. The Revolution Lyrics.

Live album by Chris de Burgh. The album was recorded at the RDS, Dublin in December 1988.

1. Last Night - Live Version. 2. Sailing Away - Live Version. 3. The Revolution - Live Version. Listen to High On Emotion (Live From Dublin) now. Listen to High On Emotion (Live From Dublin) in full in the this site app. Play on this site.

With High on Emotion, de Burgh plays to a crowd to which he has close ties, since he attended Trinity College in Dublin after moving there from Argentina. This sets the stage for a very entertaining album, as he covers a favorable blend of love songs and musical tales, pulling some of his better material from out of the past. de Burgh sings such classics as "A Spaceman Came Travelling," "Don't Pay the Ferryman," and "Patricia the Stripper" with a collected vigor played out in his trademarked classy style  . Live From Dublin exhibits both sides of Chris de Burgh, proving that his style of music is just as earnest in a live environment as on a studio album.

Chris de Burgh (born Christopher John Davison, 15 October 1948) is an Argentinian born British-Irish singer-songwriter. He is most famous for his 1986 love song "The Lady in Red", which reached number-one in Belgium, Canada, Ireland, Norway, and the United Kingdom.

Sailing Away" PERFORMER "Chris de Burgh" INDEX 01 00:00:00 FILE "03 - The Revolution. wav" WAVE TRACK 03 AUDIO TITLE "The Revolution" PERFORMER "Chris de Burgh" INDEX 01 00:00:00 FILE "04 - I'm Not Scared Anymore. wav" WAVE TRACK 04 AUDIO TITLE "I'm Not Scared Anymore" PERFORMER "Chris de Burgh" INDEX 01 00:00:00 FILE "05 - Spanish.

ARTIST: Chris De Burgh. ALBUM, TITLE: Live From Dublin. Release year, date: 1989/2015. Say Goodbye To It All 15. Don't Pay The Ferryman 16. High On Emotion. Screenshot Screenshot Screenshot Screenshot Screenshot Screenshot.

Credits

Jack Adams - Mastering, Mastering Engineer
Pete Craigie - Assistant Engineer
Chris de Burgh - Composer, Guitar, Piano, Primary Artist, Producer, Vocals
Simon Duff - Assistant, Mixing Assistant
Colm Henry - Photography
Gregg Jackmann - Engineer, Mixing, Mixing Engineer, Producer
Ian Kojima - Guitar, Keyboards, Saxophone, Vocals (Background)
Avril Mackintosh - Assistant, Mixing Assistant
Al Marnie - Bass, Guitar (Bass), Vocals (Background)
Danny McBride - Guitar, Vocals (Background)
Glenn Morrow - Keyboards, Vocals (Background)
Jeff Phillips - Drums
Gary Stewart - Assistant, Assistant Engineer
Kenny Thomson - Producer

Track List

Title/Composer Performer Time
1 Last Night Chris de Burgh Chris de Burgh 7:13
2 Sailing Away Chris de Burgh Chris de Burgh 5:14
3 The Revolution Chris de Burgh Chris de Burgh 4:03
4 I'm Not Scared Anymore Chris de Burgh Chris de Burgh 4:40
5 Spanish Train Chris de Burgh Chris de Burgh 6:00
6 Borderline Chris de Burgh Chris de Burgh 4:51
7 The Risen Lord Chris de Burgh Chris de Burgh 3:36
8 The Last Time I Cried Chris de Burgh Chris de Burgh 6:16
9 The Lady in Red Chris de Burgh Chris de Burgh 4:07
10 A Spaceman Came Travelling Chris de Burgh Chris de Burgh 3:43
11 Patricia the Stripper Chris de Burgh Chris de Burgh 4:21
12 Missing You Chris de Burgh Chris de Burgh 4:25
13 Say Goodbye to It All Chris de Burgh Chris de Burgh 5:58
14 Don't Pay the Ferryman Chris de Burgh Chris de Burgh 4:11
15 High on Emotion Chris de Burgh Chris de Burgh 5:11